Percy Jackson and The Olympians XViD R5 LINE-IMAGiNE

seeders: 1
leechers: 0
Added on Mar 9, 2010 in Movies
Torrent verified. Downloaded 0 times.

Summary:
A teenager discovers he's the descendant of a Greek god and sets out on an adventure to settle an on-going battle between the gods.
Submitted by 5fingerdis47.08K
report summary
Percy Jackson and The Olympians XViD R5 LINE-IMAGiNE (Size: 1.13 GB)
  Percy Jackson and The Olympians XViD R5 LINE-IMAGiNE.avi 1.12 GB
  Release info.txt 4.41 KB
  sample.avi 6.65 MB
  Torrent downloaded from Demonoid.com.txt 47 bytes

Description

Love for All and Sharing is the first step to solving all the problems of humanity.
No credit for me...credit to EVERYONE for sharing

*****help what we can with haiti or any other in need...the world is ONE big family*****

check out my other uploads...http://extratorrent.com/profile/raymondhome/torrents/

PLOT
A teenager discovers he\'s the descendant of a Greek god and sets out on an adventure to settle an on-going battle between the gods.

Runtime.......:1h 50mn
Video
ID : 0
Format : MPEG-4 Visual
Format profile : Advanced Simple@L5
Format settings, BVOP : Yes
Format settings, QPel : No
Format settings, GMC : No warppoints
Format settings, Matrix : Default (H.263)
Muxing mode : Packed bitstream
Codec ID : XVID
Codec ID/Hint : XviD
Duration : 1h 53mn
Bit rate : 1 285 Kbps
Width : 720 pixels
Height : 304 pixels
Display aspect ratio : 2.35:1
Frame rate : 25.000 fps
Resolution : 8 bits
Colorimetry : 4:2:0
Scan type : Progressive
Bits/(Pixel*Frame) : 0.235
Stream size : 1.02 GiB (91%)
Writing library : XviD 1.2.1 (UTC 2008-12-04)
Audio
ID : 1
Format : MPEG Audio
Format version : Version 1
Format profile : Layer 3
Mode : Joint stereo
Format_Settings_ModeExtension : MS Stereo
Codec ID : 55
Codec ID/Hint : MP3
Duration : 1h 47mn
Bit rate mode : Constant
Bit rate : 128 Kbps
Channel(s) : 2 channels
Sampling rate : 44.1 KHz
Stream size : 98.8 MiB (9%)
Alignment : Aligned on interleaves
Interleave, duration : 42 ms (1.05 video frame)

IMAGiNE NOTES
IMAGiNE bringing you another release.....

Well heres our version of Percy......sources used was the R5 DVDR and audio is mainly our own but we used the intro of viens (but tweaked).

The video has just been ripped and done the normal stuff...touch more brightness, contrast, chroma etc...

Sorry we\'re late with this one but we\'ve been busy working on other projects

http://www.imdb.com/title/tt0814255/

credit IMAGiNE & to all the people who made it possible for me to share this with everyone

UPLOAD DEDICATED TO redchaos2354, Motley Crue, jdpennington, BADASS, W1ck3d1nt3ntz, ceo54, DaRkReAlM, ghostman, karakurachow, megaplay, Emery1337x, SaM, geordieboy1979, timamirrockdude, Noir, Shedevil, bone111, JorgeMontana, BlueLady, xxxUniversalAbsurdityxxx & many, many more & to all the awesome people who are sharing (ALL THE UPLOADERS, THE RIPPERS, THE SCENE GROUPS, ETC, THE WHOLE P2P COMMUNITY)***wish i could list everyone***Thank you very much everyone & i mean EVERYONE!!!



SCREENSHOTS


Related Torrents

torrent name size files age seed leech

Sharing Widget


Download torrent
1.13 GB
seeders:1
leechers:0
Percy Jackson and The Olympians XViD R5 LINE-IMAGiNE

Trackers

tracker name Status checked seeders leechers downloads
http://tracker.openbittorrent.com/announce
outdated 02 May 2010 - - -
udp://tracker.publicbt.com:80/announce
outdated 09 Mar 2010 - - -
udp://tracker.openbittorrent.com:80/announce
outdated 09 Mar 2010 - - -
http://tracker.publicbt.com/announce
deleted 18 Aug 2011 - - -
ĀµTorrent compatible trackers list

Locations

name
ExtraTorrent
ThePirateBay
Torrent hash: e7ec9ff071cd77c3a090385ff4c7f48025541f37

All Comments

audio
0/10
video
0/10
please, leave only comments related to that torrent
or sign-in
Report a bug
', 'pageview');