The Streets - 2004 - A Grand Don't Come for Free

seeders: 1
leechers: 0
Added on Oct 3, 2008 in Music
Torrent verified. Downloaded 0 times.

The Streets - 2004 - A Grand Don't Come for Free (Size: 320.6 MB)
  01 It Was Supposed to Be So Easy.flac 27.41 MB
  02 Could Well Be In.flac 27.16 MB
  03 Not Addicted.flac 23.86 MB
  04 Blinded by the Lights.flac 29.53 MB
  05 Wouldn't Have It Any Other Way.flac 26.85 MB
  06 Get Out of My House.flac 21.94 MB
  07 Fit But You Know It.flac 29.08 MB
  08 Such a Twat.flac 23.06 MB
  09 What Is He Thinking .flac 30.32 MB
  10 Dry Your Eyes.flac 27.25 MB
  11 Empty Cans.flac 54.14 MB
  A Grand Don't Come for Free.cue 2.51 KB
  The Streets - A Grand Don't Come for Free.log 5.67 KB

Description

The Streets - 2004 - A Grand Don't Come for Free
Filenames and tags have been corrected so any .cue file included will probably not work unless you edit it. If you don't use the .cue file, don't worry about it. Enjoy this FLAC album.

Exact Audio Copy V0.99 prebeta 4 from 23. January 2008
EAC extraction logfile from 29. September 2008, 7:58
The Streets / A Grand Don't Come for Free
Used drive : HL-DT-STDVDRAM GSA-4160B Adapter: 1 ID: 1
Read mode : Secure

Utilize accurate stream : Yes

Defeat audio cache : Yes

Make use of C2 pointers : No
Read offset correction : 667

Overread into Lead-In and Lead-Out : No

Fill up missing offset samples with silence : Yes

Delete leading and trailing silent blocks : No

Null samples used in CRC calculations : Yes

Used interface : Native Win32 interface for Win NT & 2000

Gap handling : Appended to previous track
Used output format : User Defined Encoder

Selected bitrate : 128 kBit/s

Quality : High

Add ID3 tag : No

Command line compressor : C:Program FilesFLACflac.exe

Additional command line options : -V -8 -T "artist=%a" -T "title=%t" -T "album=%g" -T "date=%y" -T "tracknumber=%n" -T "genre=%m" %sTOC of the extracted CD
Track | Start | Length | Start sector | End sector

---------------------------------------------------------

1 | 0:00.00 | 3:55.68 | 0 | 17692

2 | 3:55.68 | 4:23.47 | 17693 | 37464

3 | 8:19.40 | 3:40.15 | 37465 | 53979

4 | 11:59.55 | 4:44.45 | 53980 | 75324

5 | 16:44.25 | 4:36.13 | 75325 | 96037

6 | 21:20.38 | 3:52.15 | 96038 | 113452

7 | 25:12.53 | 4:14.20 | 113453 | 132522

8 | 29:26.73 | 3:47.45 | 132523 | 149592

9 | 33:14.43 | 4:40.62 | 149593 | 170654

10 | 37:55.30 | 4:31.18 | 170655 | 190997

11 | 42:26.48 | 8:14.67 | 190998 | 228114 Track 1
Filename D:nedladdatnyttegetThe Streets - A Grand Don't Come for Free (2004, FLAC)

Related Torrents

torrent name size files age seed leech

Sharing Widget


Download torrent
320.6 MB
seeders:1
leechers:0
The Streets - 2004 - A Grand Don't Come for Free

Trackers

tracker name Status checked seeders leechers downloads
http://tracker.ccc.de/announce
outdated 14 Oct 2012 - - -
http://tracker.openbittorrent.com/announce
outdated 30 Apr 2010 - - -
ĀµTorrent compatible trackers list

Locations

name author
SumoTorrent Anonymous
TorrentReactor
ThePirateBay Z
Fenopy
Torrent hash: 6f11c6468f49e5a4522e52f4549cc01c05765d6e

All Comments

please, leave only comments related to that torrent
or sign-in
0
RingenBD3492 • 07 April 2014, 22:33
torrent downloaded
Show comment
thank you
0
JK91121148 • 16 September 2011, 17:20 Show comment
thanks uploader!
0
anqa2262 • 11 June 2011, 14:02
torrent downloaded
Show comment
great download. cheers

User Opinions

Report a bug